avi

28 Apr 2017

Resident Evil: Vendetta 2017 movie online Dual Audio Free

Resident Evil: Vendetta 2017

Resident Evil: Vendetta 2017 movie online Dual Audio Free

Resident Evil: G., Inc. is the third installment to the popular animated film franchise. It was also the night in addition to the introduction of this scene in the film. The adaptation and Capcoms of Resident Evil, one of the top selling video games in the games, all the time. Resident Evil: Food, Inc. features a fan favorite charactersS. Leon Kennedy (Matt Mercer) Chris Redfield (Kevin Dorman) and Rebecca Cicero (recommended policy). Film is produced by Marza Animation Planet (prostorPirate CaptainHarlock), ExecutiveTakashi Shimizu created (and do not complain), written by Makoto Fukami (Psycho Pass), directed by Takanori Tsujimoto (Bushido person).

26440

Read more

08 Apr 2017

Greys Anatomy Season 13 Episode 11 Watch Episode Online 720p

Greys Anatomy Season 13 Episode 11

Greys Anatomy Season 13 Episode 11 Watch Episode Online 720p

Anatomy Seattle Grace Hospital in Gray is a medical television series about a team of surgeons.
http://www.joiningtheilluminati.com/the-big-bang-theory-season-10-episode-19-watch-full-episode/ The show centers Meredith Gray (Ellen Pompeo) and her life as a resident at a hospital in the area.
Supernatural Season 12
Supernatural season 12
Her husband’s neurosurgeon, Derek Shepherd (Patrick Dempsey) and best friend Cristina Yang (Sandra Oh) in addition to the relationship, his colleagues and his relationship with other doctors in the study. Each episode has a variety of medical cases and dives in the personal drama of doctors in Seattle Grace, Dr. OwenHunt (Kevin McKidd) as the new bossSurgery at the head of the Department of Surgery.

. Greys Anatomy Season 13

26440

Read more

29 Mar 2017

The Assignment 2016 hd free Watch Movie

The Assignment 2016

The Assignment 2016 hd free Watch Movie

After being deceived, killer, hit a woman (Mishel Rodriges) with the help of a rogue surgeon (Sigurni Uiver). Accompanied by a nurse named Johnny, he explains revenge.
http://hollywoodbeachwatersports.com/the-mobfathers-2016-online-watch-movie/

.
The Void 2016 Full Watch Movie dual audio stream Ratchet and Clank 2016 com/?p=5073″>La tortue rouge 2016 watch movie …

26440

Read more

24 Mar 2017

Beauty And The Beast 2017 online movie watch English Dual Audio

Beauty And The Beast 2017

Beauty And The Beast 2017 online movie watch English Dual Audio

Fantastic journey of Belle bright, beautiful and independent young woman who is trapped by the beast in his castle. Despite her fears, she made friends with the staff Enchanted Castle and learn to look beyond the terrible phenomenon of religion, and to achieve a good heart and true dušuPrincinside.

krasotai animal Disnei`s live version of “Beauty and the Beast,” based on the story of Jean-Marie Leprince de Beaumont, tales of the prince who is cursed vedmaI turned into a hideous beast. Belle, the beautiful bibliophile, is one that will slomitispell him.

English

Classification: P13

Date ofRelease: January 30, 2017

Genre: Fantasy / Romance / Musical

Date: not available

Distributor: Walt Disney

Starring: Ema Uotsan, Dan Stevens, Luke Evans, Emma Thompson, Kevin Klain, Ian Makkelan, Ivan Makgregar, Stanley Dzhosh Gad Tuchchi

Director: Bill Condon

Format: 2D, IMAX 3D, 2D Atmos, 2D ATMOS D BOX

adaptatsiyafeyaDisneiaRasskaz monstrous-looking prince and a young woman who falls in love. http://sereneti.com/?p=5149
com/jason-bourne-2016-watch-online-english-dual-audio/”>Jason Bourne 2016 Disney Animated Classic acquires a new form with improved mythology and actors all zvezda.
Uncertain 2015 online Mladi prince imprisoned in an animal can be released only true love.
Gifted 2017 Watch What could only be his shansda came whenhe met Belle, only human girl who visited the castle since he was fascinated.

….

26440

Read more

24 Feb 2017

Sausage Party 2016 HD Subtitles Full Watch Online

Sausage Party 2016

Sausage Party 2016 HD Subtitles Full Watch Online

Sausage trying to uncover the truth about his existence.

Director Greg Tiernan, Konrad Vernon

Author: Kyle Hunter (scenario), Ariel Sefer (scenario)

Starring: Seth Rogen, Kristen Viig, Jonah Hill

Genre: Animation | adventure | Comedi | fantasy

Country: United States

English language

itching THX

CM8melakukannya right the first time

source:

Video: HDCAM 1080 OVN matinee

Audio: English breakfast matinee OVN HK

thank you

attention:

Sarađuje2 group is pleased thatknow better matinee edesconecido

and create first-CM8 unknown nest Comborelease exclusive areas.

VIP we chose the week before, maybe one of them too!

Many more to come !!!

Now we have decided to release him so that everyone can come true also quality.

encode:

The camera is the establishment of the excellent air and perspective needed

brightness, contrast and sharpness are not yet perfect to do anything here.

Audiosudahwell, zvucigotovo as lines, video and lipsinced filtered.

very good

appreciate

Video: 720k256 @ bitrate 2000 2PASS

Audio: Bahasa Inggeris AC3 HK microphone

See and put

common

Full name:

Format: AVI

Format / Info: Audio Video Interleave

Size: GIB

Duration: 1h 21mn

Total bit rate: 2267 Kbps

Vriting application: Nandub

Vriting libraries: VirtualDubMod build 1853 / release

video

ID: 0

Format: MPEG-4 Visual

Advanced Format profile / * * /

Definition VOD format: 2

definicijeFormat, Kpelle:yes

definition format, GMC: No varppoints

Definition format, Matrix: Default ()

Mukingomode: Packed bitstream

Codec ID: XVID

Codec ID / Hint: DivX

Duration: 1h 21mn

Bit rate: 1999 kbps

Width: 720 pixels

Height: 256 pixels

Display aspect ratio:

Frame Rate: FPS

Color Space: IUD

Chroma sub-sampling of 4: 2: 0

Bit depth: 8 bits

Scan type: Progressive

Compression: Lossy

Bits / (Pixel * Frame):

veličinaStream: fold (88%) of

Vriting libraries: XviD (UTC 2008-12-04)

hearing

ID:1

Format: AC-3

Format / Info: Audio Coding 3

but continue: CM (complete main)

Definition format, big endian: Big

Codec ID: 2000

Duration: 1h 21mn

Bitrate mode: Variable

Bit rate: 256 Kbps

Channel (s): 2 channels

Thejawatan Channel: Front: LR

Sample Rate: kHz

Bit depth: 16-bit

Compression: Lossy

Stream size: 150 MiB (11%)

Split alignment prednjiinterpolirati

Interleave, duration: 33 ms (video frame)

Meanwhile, the pre-load: 500 ms

26440

Read more

22 Feb 2017

Lovesong 2016 Movie dual audio free

Lovesong 2016

Lovesong 2016 Movie dual audio free

between two friends, a visit deeper into makeshift road. Ignored her husband, Sarah embarks on a journey to an unexpected friend of Carl and his daughter. X Men Apocalypse 2016
com/free-fire-2016-full-watch-online-dual-audio-free/”>Free Fire 2016 Full Watch Online Dual Audio Free
Via increased thrust friendly state between them. Outlaws and Angels 2016 online dual audio stream
In recent years, attempts to convey both Carl and I will build the relationship they were in the days before the wedding.

When a woman is emotionally neglected by her friend to go impromptu road trip, and separates traduceretet next higher linaongezekampaka goodbye. Rock Dog 2016 movie online in/suicide-squad-2016-hd-dual-audio-full-movie/”>http://freshee.in/suicide-squad-2016-hd-dual-audio-full-movie/

…..

26440

Read more

25 Jan 2017

MOHENJO DARO 2016 watch online

MOHENJO DARO 2016

MOHENJO DARO 2016 watch online

– Bollywood Movie –

** – Mohenjo-daro – **

– 2016 –

** DesiSCR Rip 2CD / H.264 / AAC **

– –

~ * ~ * Screenshot

common

Source = @ DesiSCR ICTV

Format: Matroska

File size: GIB

Duration: 2 hours 34mn

Overall Bitrate: 1263 Kbps

Encoded date: 8/13/2016 01:21:06 UTC

video

Format: AVC

Format / Info: Advanced Video Codec

Format profile: / * * /

settingFormat CABAC: Yes

Setting format, frame 8 frames

Codec ID: V_MPEG4 / ISO / AVC

Duration: 2 hours 34mn

Bitrate: 1131 Kbps

Width: 720pixels

Height: 304 pixels

Display aspect ratio: 1

Frame rate mode: Constant

Frame rate: FPS

Color space, YUV

Chroma sampling: 4: 2: 0

Bit depth: 8 bits

Scan type: Progressive

Bits / (Pixel * Frame):

Stream size: GIB (90%)

sound

Format: AAC

Format / Info: Advanced Audio Codec

Format profile: LC

Codec ID: A_AAC

Duration: 2 hours 34mn

Bit rate: 128 Kbps

Channel (s): 2ch

Channel positions: Front: L R

samplingrate: kHz

Frame Rate: fps (SPF 1024)

rehimencompression: lossy

delaysrelated video: 9ms

Stream size: 142 MiB (10%)

Default: Yes

Forced: No

Heads-up: None of the sources

Quote: On

A DDR Exclusive!

26440

Read more

We welcome you to contact us for more information
about any of our products.